#TITLE:Be_Natural;
#SUBTITLE:こんな娘がいたら僕はもう...!! *conboku*;
#ARTIST:NANA;
#TITLETRANSLIT:;
#SUBTITLETRANSLIT:Konna Ko ga itara boku wa mou...!! *conboku*;
#ARTISTTRANSLIT:;
#CREDIT:;
#BANNER:conboku-banner.png;
#BACKGROUND:conboku-bg.png;
#LYRICSPATH:conboku.lrc;
#CDTITLE:cdtitle.png;
#MUSIC:conboku.ogg;
#OFFSET:-1.690;
#SAMPLESTART:75.000;
#SAMPLELENGTH:19.000;
#SELECTABLE:YES;
#DISPLAYBPM:172.000;
#BPMS:0.000=172.000,34.500=344.000,36.000=172.000,156.000=344.000,157.000=172.000,172.000=344.000,173.000=172.000,207.500=344.000,209.000=172.000,209.500=344.000,212.000=172.000;
#STOPS:34.500=0.080
,35.000=0.080
,35.500=0.080
,156.000=0.160
,172.000=0.160
,207.500=0.160
,208.500=0.080
,209.000=0.480
,241.500=0.160
,242.000=0.160
;
#BGCHANGES:-4.690=conboku.avi=1.000=0=0=0,
338.000=conboku-bg.png=1.000=0=0=1,
99999=-nosongbg-=1.000=0=0=0 // don't automatically add -songbackground-
;
// cache tags:
#FIRSTBEAT:2.500;
#LASTBEAT:315.000;
#SONGFILENAME:songs/Otaku's Dream 3rd Anime Mix/Secret Simfile 1/conboku.sm;
#HASMUSIC:1;
#HASBANNER:1;
#MUSICLENGTH:116.989;
// end cache tags

//---------------dance-single - YS Intermediate----------------
#NOTES:
     dance-single:
     YS Intermediate:
     Medium:
     6:
     0.393,0.606,0.539,0.231,0.000,232.000,63.000,27.000,0.000,0.000:
0000
0000
0000
0000
,
1001
0000
0000
0000
,
0110
0000
0000
0000
,
1000
0000
1000
0000
,
0001
0000
0001
0000
,
0200
0000
0000
0000
,
0320
0000
0000
0030
,
2000
0000
0000
3000
,
0100
0000
0000
0000
0000
0010
0100
0010
,
1001
1000
0001
1000
,
0110
0001
1000
0001
,
1100
0001
0100
0001
,
0011
0000
0100
0100
,
0110
0000
0000
1001
0000
0000
0110
0000
,
0110
0000
0000
1001
0000
0000
0110
0000
,
1001
0010
0010
0010
,
0110
0000
0000
0000
,
2000
0000
0000
3001
,
0002
0000
0000
0000
,
0203
0000
0000
0000
0000
0310
0000
0020
,
0000
0000
0000
0030
,
2002
0000
0000
0000
,
0000
0000
0000
3003
,
0010
0000
0000
1000
0000
0000
0000
0000
,
0100
0000
0000
0001
0000
0000
0000
0000
,
0001
0000
0000
0010
0000
0000
0000
0000
,
1000
0000
0000
0100
0000
0000
0000
0000
,
0110
0000
0000
0001
0000
0000
0000
0000
,
0110
0000
0000
1000
0000
0000
0000
0000
,
1100
0001
0001
0100
,
0011
0000
1000
0000
1000
0010
0010
0000
,
1001
0000
0100
0000
0010
0100
0000
0100
,
0000
0010
0000
2000
0000
0000
3000
0000
,
0110
0000
0001
0000
1000
0001
0000
0001
,
0000
1000
0020
0000
0000
0000
0030
0000
,
1100
0100
0010
0001
,
0010
0000
0100
0000
1000
0001
0000
1001
,
0000
0000
0020
0000
0030
0100
0000
0100
,
0000
0001
2000
0000
3000
0001
0000
0000
,
0110
0000
1001
0000
0000
0100
0000
1001
,
0000
1001
0100
0001
,
0100
0010
1000
0001
,
0100
1000
0100
0001
,
0110
0000
1001
0000
0000
0010
0000
1001
,
0000
1001
0010
1000
,
0110
0001
0011
0100
,
1100
0000
0001
0000
0001
1000
0001
1000
,
0001
0000
0000
1000
0000
0000
0000
0000
,
0010
0000
0000
0100
0000
0000
0000
0000
,
0002
0000
0000
0000
,
0000
0003
0100
0010
,
0200
0000
0000
0000
0300
0001
0100
0110
,
0000
1000
0020
0000
0000
0000
0000
0030
,
1001
1000
1000
1000
,
0110
0001
0001
0001
,
1100
0100
0100
0100
,
0011
0000
1000
0000
0001
0100
0001
0000
,
2000
0000
0000
3000
,
0002
0000
0000
0003
,
0220
0330
0100
0010
,
0200
0000
0300
0001
0001
0001
1000
0000
,
1000
0001
1000
0010
,
0010
0100
0010
1100
,
0001
0100
0001
1100
,
0001
0000
1000
0010
0010
0000
1100
0000
,
0000
1000
0000
0000
1000
0000
0011
0000
,
0000
0001
0000
0000
0001
0000
2000
0000
,
0000
0000
3001
1000
0001
0000
0100
0000
,
0100
0010
0000
0010
0000
0000
0011
0000
,
0011
1001
1001
1100
,
1100
1001
1001
0101
,
0101
1001
1001
1010
,
1010
1001
1001
0110
,
1000
1000
1000
0110
,
0001
0001
0001
2002
,
3003
0100
0020
0000
0000
0000
0000
0000
,
0030
0000
0010
2000
,
3000
0001
0002
0000
0000
0000
1000
0000
,
0000
1000
0000
1003
;

//---------------dance-single - YS Be_Crazy----------------
#NOTES:
     dance-single:
     YS Be_Crazy:
     Challenge:
     11:
     1.000,1.000,1.000,0.256,0.893,767.000,195.000,30.000,0.000,1.000:
0000
0000
0000
0000
0000
1000
0010
0001
,
1001
1000
0100
0010
0101
0010
0100
1000
,
0011
0100
1000
0100
1001
0010
0100
0010
,
1010
0100
0010
0001
0110
0100
1000
1000
,
0001
0100
0002
0000
0000
0000
0003
0000
,
2100
0000
0100
0010
0100
0000
0010
0001
0010
0000
0100
0001
0100
0000
0010
0100
,
3020
0000
0100
0001
0100
0000
1000
0001
1000
0000
0001
0100
0031
0000
1000
0100
,
0002
0000
0010
0100
1000
0000
0103
0010
1000
0000
0100
0010
0001
0000
1000
0010
,
0100
0000
1000
0001
0110
0000
1000
0001
1100
0000
0011
0000
1010
0000
0110
0000
,
1001
1100
1000
1010
1001
0011
0001
0101
,
0110
1100
0100
0101
0110
0010
0011
1010
,
1001
0001
0100
1000
0100
0001
1010
0000
,
0101
0000
0100
0002
1000
0100
0013
0000
,
0110
0000
0100
0001
0010
0000
1100
0000
0100
0000
0001
0000
0110
0000
0000
0000
,
1001
0000
0100
0010
1000
0000
0101
0000
0100
0000
1000
0000
0110
0000
0000
0000
,
2001
0000
0001
0000
0001
0000
3001
0010
0001
0100
0010
0100
0010
1000
0100
1000
,
0100
0000
0000
0000
0100
0010
0100
0000
1000
0000
0000
0100
0000
0000
0010
0000
,
0210
0000
0010
0001
0010
0000
0010
0001
0010
0000
0310
0001
0010
0000
2100
0010
,
0001
0000
0001
0010
0100
0000
0100
0010
0001
0000
0001
0010
3100
0000
0100
0010
,
0101
0000
1000
0001
0100
0000
0100
0001
1100
0000
1000
0010
0001
0000
0001
0010
,
1001
0100
0010
0001
0010
0100
1000
0100
1001
0010
0100
1000
0100
0010
0001
0010
,
2002
0000
0000
0000
,
0000
0000
0000
3003
,
0110
1100
0011
1000
0000
0100
0100
0000
,
0110
0011
1100
0001
0000
0010
0010
0000
,
0011
1010
0101
1000
0000
0001
0001
0000
,
1100
0101
1010
0001
0000
1000
1000
0000
,
0110
0000
1000
0000
0101
0000
0001
0000
0110
0000
1100
0000
0011
0000
1000
0001
,
0110
0000
0001
0000
1010
0000
1000
0000
0110
0000
0011
0000
1100
0000
1000
0001
,
0110
1000
0010
0100
0001
0100
1000
0100
,
0000
0000
0010
0000
0010
0000
1000
0001
1000
0000
0110
0000
0110
0000
0000
0000
,
1001
1000
1100
0010
0101
0010
0110
1000
,
1100
0010
1001
2010
0100
0010
3001
0010
,
0110
1000
0011
0100
1001
1000
0110
0001
,
0011
1000
0201
0000
0010
0010
0310
0100
,
1001
0110
0011
1100
,
1001
0000
0110
0000
1000
0001
0100
1000
,
0110
0000
0001
0000
1100
0000
0011
0000
1000
0100
0010
0100
1000
0100
0010
0100
,
1000
0100
0010
0001
0010
0100
0010
0001
0010
0100
1000
0100
0010
0001
0010
0100
,
1001
0000
0000
0000
1001
0000
1000
0100
1000
0000
0001
0010
0001
0000
1001
0000
,
0100
0010
0100
0000
1001
0000
1000
0100
0010
0000
0100
0010
1001
0000
0001
1000
,
0011
0010
0110
0100
1100
1000
1001
0001
,
0011
0010
0110
0100
1100
0011
1100
0000
,
0110
0000
0000
0000
1001
0000
0001
0100
1000
0000
0010
0100
0001
0000
1001
0000
,
0010
0100
0010
0000
1001
0000
0100
0010
0001
0000
0010
0100
1001
0000
0100
0000
,
0110
1000
0001
1000
0011
0100
0010
0100
,
1010
0100
0010
0001
0010
1000
0100
0010
0001
1000
0010
0001
0010
1000
0100
0010
,
0101
0101
0101
1000
0000
0100
0110
0000
,
1010
0000
1010
0000
1010
0000
0001
0000
0000
0000
0100
0000
0110
0000
1000
0100
,
0020
0000
1000
0100
1000
0000
0001
1000
0032
0000
0023
1000
0230
0000
2300
0001
,
3200
0000
0010
0001
0010
0000
0010
1000
0320
0000
0032
1000
0023
0000
0230
0001
,
2300
0010
0100
0010
0001
0010
0100
0010
0001
0010
3100
0010
1000
0000
0011
0000
,
0000
0000
1100
0000
0021
1000
0000
0000
1000
0000
0000
0000
1000
0000
0030
0000
,
1001
0010
0100
0000
0010
0000
1000
0000
0011
0100
1000
0100
0010
0001
0100
0010
,
1001
0100
0001
0000
1000
0100
0001
0000
0110
1000
0001
0010
1000
0100
0001
0010
,
1100
0001
0010
0000
1000
0100
0010
0000
1001
0000
0010
0000
0101
0000
1000
0000
,
0011
1000
0010
0000
1010
0100
0001
1000
0110
0000
0110
0000
0110
0000
0000
0000
,
1100
0010
0001
0010
0100
1000
0100
0010
0100
1000
0100
0010
0001
0010
0100
0010
,
0001
0010
0100
1000
0100
0010
0001
0010
0100
1000
0100
0010
1001
0000
0000
0000
,
1001
0110
1001
0000
0001
0100
1000
0010
,
0200
0000
0000
0000
0300
0000
2200
3300
0022
0033
0110
0000
1001
0100
0010
0000
,
1100
0010
0001
0000
1010
0001
0100
0000
1100
0010
0001
0000
1001
0100
1000
0000
,
0011
0100
1000
0000
0101
1000
0010
0000
0011
0100
0001
0000
1100
0000
0100
0000
,
0110
0010
0011
0001
1001
0000
1100
0000
,
0010
0000
0001
0000
0100
0000
1001
0000
1001
0010
0001
0010
1100
0001
1100
0000
,
1100
0000
0001
0000
0000
0000
0101
0000
1010
0100
1000
0100
0011
1000
0011
0000
,
0011
0000
1000
0000
0000
0000
1010
0000
0101
0000
0000
0000
1020
0000
0100
1000
,
0100
0000
0031
1000
0001
0000
0100
0001
0100
0000
1000
0000
0100
0000
0001
0010
,
0100
0000
1100
0000
0000
0000
0110
0000
1001
0000
0100
0000
0001
0010
0100
1000
,
0001
0010
0100
1000
0001
0100
0010
1000
0001
0100
0010
1000
0100
0010
0001
0010
,
0100
1000
0100
0010
0001
0010
0100
1000
0100
0010
0100
0010
1000
0100
0010
0100
,
0001
0010
0100
0010
1000
0100
0010
0001
1000
0100
0010
0001
0100
0010
0001
0100
,
0010
0100
1001
0000
0000
0000
1100
0000
0011
0000
0000
0000
0110
0000
1001
0100
,
1010
0000
0101
0010
1001
0000
1100
0010
0101
0000
1010
0001
1100
0000
1100
0010
,
1001
0000
0011
0100
1001
0000
0100
0010
0001
0010
0100
1000
0100
0010
0001
0010
,
0001
0010
0001
0010
0100
1000
0100
1000
0100
1000
0100
0001
0100
1000
0001
0100
,
0001
1000
0010
1000
0100
0001
0100
1000
0001
1000
0010
0100
0011
1000
0001
0010
,
1001
0100
0010
0100
1001
0010
1000
0100
1001
0010
1000
0100
0011
0100
1000
0001
,
0110
1000
0010
0001
1010
0100
1000
0010
0101
0010
1000
0001
1111
0000
0000
0000
;

//---------------dance-single - YS Heavy----------------
#NOTES:
     dance-single:
     YS Heavy:
     Hard:
     8:
     0.637,0.740,0.530,0.222,0.026,434.000,62.000,26.000,0.000,0.000:
0000
0000
0000
0000
,
1001
0000
1000
1000
0000
0001
1000
0000
,
0110
0000
0001
0001
0000
1000
0001
0000
,
0011
1000
1010
0100
,
0101
0000
0010
0000
1000
0100
1000
0000
,
0002
1000
0000
1000
,
2003
0000
0001
0000
3000
0000
1000
0010
,
0200
0000
0000
0300
0001
0100
0010
1000
,
0000
1000
0100
0000
0010
0001
1000
1000
,
0101
0100
0010
1000
0100
0010
0100
1000
,
0010
0100
1000
0100
0001
0010
0100
0010
,
0100
1000
0001
1000
0010
1000
0100
0000
,
0011
0000
0001
1000
0010
0100
0010
0000
,
1010
0000
0000
1010
0000
0000
1001
0000
,
0101
0000
0000
0101
0000
0000
0110
0000
,
1001
1000
0010
0001
0010
0100
0001
1000
,
1100
0000
0000
0000
0000
0000
0000
0000
0010
0000
0000
0001
0000
0000
0010
0000
,
0002
0000
0000
0000
0000
0003
1000
2000
,
0000
0000
0000
3000
,
1010
0100
0010
0100
0011
0100
1000
0100
,
0110
0000
0000
0000
0110
1000
0001
0000
,
2002
0000
0000
0000
,
0000
0000
0000
3003
,
1001
1000
0001
1000
0000
0000
0000
0000
,
1001
0001
1000
0001
0000
0000
0100
0010
,
0000
1000
0100
0010
0001
0010
0100
1000
,
0000
1000
0010
0010
0000
1000
0010
1000
,
0010
0100
0001
0001
0010
0100
0010
0100
,
1000
0001
0010
0010
0001
0100
1000
0100
,
0000
0100
0010
0010
0010
1000
0100
0010
,
0000
0010
0001
0000
0001
0100
0100
0000
,
1001
1000
0100
1000
0001
0100
0010
0100
,
0001
0010
0100
2000
0000
0000
3000
0000
,
0110
0010
1000
0010
1000
0001
0010
0001
,
1000
0100
0020
0000
0000
0000
0030
0000
,
1001
0011
0011
0011
,
1100
0000
1100
0000
1100
0010
0000
2001
,
0000
0000
3020
0000
1030
0100
0010
0100
,
1000
0001
0200
0000
0300
0001
0001
0000
,
0110
0000
1001
0000
0000
0010
1000
1001
,
0000
0001
1001
0000
0100
0010
0100
0010
,
1000
0100
0001
0100
1000
0010
1000
0001
,
0100
0010
1000
0001
0000
1000
0001
0000
,
0110
0000
1001
0000
0000
0010
0001
1001
,
0000
1000
1001
0000
0001
1000
0001
1000
,
1010
0100
0001
0000
0101
0010
1000
0100
,
1000
0100
1000
0000
0010
0001
0010
0000
0001
1000
0001
0000
0010
1000
0010
0000
,
1001
0100
0010
0001
0000
0001
0100
0000
,
1001
0010
0100
1000
0000
1000
0010
0000
,
1002
1000
1000
1000
,
1000
0000
1003
0100
0010
0001
0000
0001
,
2000
0000
0100
0000
3100
0001
0100
1000
,
0000
1000
0020
0000
0000
0000
0000
0030
,
1001
0001
1100
1000
,
0110
0000
1000
0000
0101
0010
0001
0000
,
1100
0100
1001
0010
,
0011
0000
1000
0001
0010
0100
1000
0000
,
1000
0100
1000
0100
0010
0001
0010
0000
,
0001
0010
0001
0010
0100
1000
0100
0000
,
0012
0000
1003
0000
1000
0100
0001
0100
,
2000
0000
0000
0000
3000
0000
2002
3003
0220
0330
1001
0000
0001
0000
1000
0000
,
0100
0100
0010
0001
0010
0000
1000
0001
,
0010
0010
0100
1000
0100
0000
1000
0100
,
0010
0001
1000
0100
0010
0001
0100
0000
,
0100
0010
1000
0001
0001
0000
1100
1000
,
1000
0001
0000
0001
1000
0000
0101
0001
,
0001
0100
0000
0100
0001
0000
2100
0000
,
0100
0000
0000
0000
3100
0000
0010
0000
0001
0000
0010
0000
0100
0000
0000
0100
,
0000
0010
0000
0010
0100
0000
0001
0100
,
1000
0100
0001
0010
1000
0010
0001
0100
,
1000
0100
0001
0010
0001
0001
0001
1000
,
0100
0010
0001
0010
0100
1000
0100
0010
,
0001
0010
0000
0100
1000
0000
1001
0000
,
1000
0100
1000
0001
0010
0000
0110
0000
,
0001
0010
0001
1000
0100
0010
0002
0000
,
0003
0100
0200
0010
0000
0010
0000
0010
,
0000
0310
0000
1000
1000
0000
2000
0000
,
3000
0001
0002
0100
0000
0100
0000
0100
,
0000
0100
0000
0100
0000
0103
1001
0000
;

//---------------dance-single - YS Novice----------------
#NOTES:
     dance-single:
     YS Novice:
     Easy:
     4:
     0.265,0.370,0.222,0.214,0.000,166.000,26.000,25.000,0.000,0.000:
0000
0000
0000
0000
,
1001
0000
0000
0000
,
0110
0000
0000
0000
,
0100
0000
0100
0000
,
0010
0000
0010
0000
,
0200
0000
0000
0000
,
0320
0000
0000
0030
,
2000
0000
0000
3000
,
0100
0000
0000
0000
,
1000
1000
0000
0001
,
0001
0001
0000
1000
,
0010
0000
0100
0100
,
0010
0000
0001
0001
,
1001
0000
0000
1000
0000
0000
0010
0000
,
0110
0000
0000
0001
0000
0000
1000
0000
,
0100
0100
0100
0100
,
1001
0000
0000
0000
,
0200
0000
0000
0300
,
0020
0000
0000
0030
,
2000
0000
0000
0000
0000
3000
0000
0002
,
0000
0000
0000
0003
,
2000
0000
0000
0000
,
0000
0000
0000
3000
,
0010
0000
0000
0010
0000
0000
0000
0000
,
0100
0000
0000
0100
0000
0000
0000
0000
,
0001
0000
0000
0001
0000
0000
0000
0000
,
1000
0000
0000
1000
0000
0000
0000
0000
,
1000
0000
0000
0100
0000
0000
0000
0000
,
0001
0000
0000
0010
0000
0000
0000
0000
,
1000
0000
0000
0001
0000
0000
0000
0000
,
0001
0000
0000
1000
0000
0000
0010
0000
,
0010
1000
0001
1000
,
0000
0100
0010
0100
,
0000
0001
1000
0001
,
0000
0010
0100
0010
,
0000
0100
0000
0010
,
0000
0100
0000
0010
,
0020
0000
0030
1000
,
0000
0001
1000
0001
,
1000
0000
0100
0100
,
0000
0000
0010
0010
,
1000
0010
1000
0010
,
0100
0001
0100
0001
,
0100
0000
0010
0010
,
0000
0000
0100
0100
,
1001
0000
0110
0000
,
2002
0000
0000
3003
,
0010
0000
0000
0001
0000
0000
0000
0000
,
0100
0000
0000
1000
0000
0000
0000
0000
,
0020
0000
0000
0000
,
0000
0030
1000
0000
,
2000
0000
0000
0000
3000
0000
0000
0010
,
0000
0000
0000
0000
,
0000
1001
0000
1001
,
0000
0110
0000
0110
,
0000
1001
0000
1001
,
0000
0110
0000
0110
,
2000
0000
0000
3000
,
0002
0000
0000
0003
,
0200
0300
0100
0100
,
0200
0000
0300
0001
0000
0000
0000
0000
,
1100
0000
1100
0000
,
0011
0000
0011
0000
,
1010
0000
1010
0000
,
0101
0000
0101
1000
,
0000
1000
0000
0000
0100
0000
0001
0000
,
0000
0001
0000
0000
0010
0000
0020
0000
,
0000
0000
0000
0030
0000
0000
0200
0000
,
0000
0000
0000
0300
0000
0000
0100
0000
,
0010
0100
0010
1000
,
0001
1000
0001
0100
,
0001
0100
0001
1000
,
0010
1000
0010
0000
,
1000
0100
0010
0001
,
1000
0001
1000
2002
,
3003
0220
0000
0000
,
0330
0000
0001
2000
,
3000
0002
0000
0000
,
0000
0000
0000
1003
;
